osu file format v14

[General]
AudioFilename: Watamote - Ending 4 (summer festival).mp3
AudioLeadIn: 2000
PreviewTime: 70181
Countdown: 0
SampleSet: Soft
StackLeniency: 0.7
Mode: 0
LetterboxInBreaks: 0
WidescreenStoryboard: 0

[Editor]
Bookmarks: 82826
DistanceSpacing: 1.8
BeatDivisor: 4
GridSize: 4
TimelineZoom: 1.3

[Metadata]
Title:Natsu Matsuri
TitleUnicode:夏祭り
Artist:Utsu-P & Minatsuki Toka
ArtistUnicode:鬱P & ミナツキトーカ
Creator:Desperate-kun
Version:Yuzu's Insane
Source:Watashi ga Motenai no wa Dou Kangaete mo Omaera ga Warui!
Tags:Mao Vocaloid WataMote Ending Fireworks Tomoko Kuroki Popular TV Size Whiteberry Hatsune Miku Cover Kenterz Yuzu- PandoristP 私がモテないのはどう考えてもお前らが悪い!
BeatmapID:535062
BeatmapSetID:219863

[Difficulty]
HPDrainRate:7
CircleSize:4
OverallDifficulty:7
ApproachRate:8
SliderMultiplier:2
SliderTickRate:2

[Events]
//Background and Video events
0,0,"bg.jpg",0,0
//Break Periods
//Storyboard Layer 0 (Background)
//Storyboard Layer 1 (Fail)
//Storyboard Layer 2 (Pass)
//Storyboard Layer 3 (Foreground)
//Storyboard Sound Samples
//Background Colour Transformations
3,100,0,0,0

[TimingPoints]
0,800,4,2,1,30,1,0
0,-133.333333333333,4,2,0,30,0,0
25600,-100,4,2,0,30,0,0
26000,-133.333333333333,4,2,0,30,0,0
26400,-200,4,2,0,30,0,0
26800,-133.333333333333,4,2,0,30,0,0
27200,-100,4,2,0,30,0,0
27800,-133.333333333333,4,2,0,30,0,0
28000,-200,4,2,0,30,0,0
28400,-133.333333333333,4,2,0,30,0,0
28800,-100,4,2,0,30,0,0
29400,-133.333333333333,4,2,0,30,0,0
29600,-200,4,2,0,30,0,0
30000,-133.333333333333,4,2,0,30,0,0
32000,845.070422535211,4,2,1,30,1,0
32000,-200,4,2,0,30,0,0
32845,952.380952380952,4,2,1,30,1,0
33797,1142.85714285714,4,2,1,30,1,0
34939,1250,4,2,1,30,1,0
35564,1734.10404624277,4,2,1,30,1,1
36431,422.535211267606,4,1,1,60,1,1
43191,-133.333333333333,4,1,1,60,0,0
69388,-200,4,1,1,60,0,0
70233,-100,4,1,1,60,0,1
81219,-100,4,1,1,60,0,0
82064,-100,4,1,1,60,0,1
87135,-83.3333333333333,4,1,1,60,0,1
88825,-66.6666666666667,4,1,1,60,0,0
89247,-66.6666666666667,4,2,1,5,0,0

[Colours]
Combo1 : 164,164,255
Combo2 : 255,125,190
Combo3 : 149,202,255
Combo4 : 255,125,255

[HitObjects]
78,107,0,6,0,B|91:131|96:157|93:182,1,75.0000028610231,2|0,0:0|0:0,0:0:0:0:
47,256,800,1,0,0:0:0:0:
103,326,1200,1,0,0:0:0:0:
209,243,1600,2,0,B|245:209|236:157|236:157|264:166|292:157,1,150.000005722046,2|0,0:0|0:0,0:0:0:0:
266,70,2800,1,0,0:0:0:0:
396,194,3200,6,0,L|408:105,2,75.0000028610231,2|0|0,0:0|0:0|0:0,0:0:0:0:
320,242,4400,1,0,0:0:0:0:
190,118,4800,2,0,L|178:207,2,75.0000028610231,2|0|0,0:0|0:0|0:0,0:0:0:0:
266,70,6000,1,0,0:0:0:0:
132,51,6400,6,0,L|58:64,1,75.0000028610231,2|0,0:0|0:0,0:0:0:0:
40,152,7200,2,0,L|114:139,1,75.0000028610231,0|0,0:0|0:0,0:0:0:0:
242,181,8000,2,0,B|279:174|311:208|302:250|272:269|244:265,1,150.000005722046,2|0,0:0|0:0,0:0:0:0:
159,230,9200,1,0,0:0:0:0:
332,320,9600,6,0,B|354:305|368:282|373:259,1,75.0000028610231,2|0,0:0|0:0,0:0:0:0:
433,192,10400,2,0,B|438:218|453:239|473:252,1,75.0000028610231,0|0,0:0|0:0,0:0:0:0:
493,119,11200,2,0,L|496:43,2,75.0000028610231,2|0|0,0:0|0:0|0:0,0:0:0:0:
433,192,12400,1,0,0:0:0:0:
304,153,12800,6,0,B|217:156|180:74|180:74|134:85|102:117|108:165|129:188,1,300.000011444092,2|2,0:0|0:0,0:0:0:0:
364,303,15200,2,0,L|290:314,1,75.0000028610231,0|0,0:0|0:0,0:0:0:0:
348,192,16000,6,0,L|422:181,1,75.0000028610231,2|0,0:0|0:0,0:0:0:0:
336,77,16800,2,0,B|296:113|242:122|196:106,1,150.000005722046,0|2,0:0|0:0,0:0:0:0:
115,64,18000,1,0,0:0:0:0:
157,192,18400,2,0,L|155:273,1,75.0000028610231,2|0,0:0|0:0,0:0:0:0:
222,328,19200,6,0,B|245:314|271:310|294:315,1,75.0000028610231,2|0,0:0|0:0,0:0:0:0:
405,237,20000,2,0,B|360:208|309:200|262:210,2,150.000005722046,0|2|0,0:0|0:0|0:0,0:0:0:0:
475,292,22000,1,0,0:0:0:0:
451,159,22400,6,0,L|446:80,1,75.0000028610231,2|0,0:0|0:0,0:0:0:0:
372,32,23200,1,0,0:0:0:0:
294,78,23600,1,0,0:0:0:0:
165,39,24000,2,0,L|91:34,2,75.0000028610231,2|0|0,0:0|0:0|0:0,0:0:0:0:
211,116,25200,1,0,0:0:0:0:
147,235,25600,6,0,L|133:282,2,50,2|0|0,3:2|0:0|0:0,0:0:0:0:
257,271,26400,6,0,L|271:323,1,50,2|0,0:0|0:0,0:0:0:0:
430,315,27200,6,0,B|418:290|419:263,1,50,2|0,3:2|0:0,0:0:0:0:
458,185,27600,2,0,B|470:160|469:133,1,50,0|0,0:0|0:0,0:0:0:0:
408,70,28000,6,0,L|355:64,1,50,2|0,0:0|0:0,0:0:0:0:
191,96,28800,6,0,L|140:94,1,50,2|0,3:2|0:0,0:0:0:0:
89,168,29200,2,0,L|138:169,1,50,0|0,0:0|0:0,0:0:0:0:
210,226,29600,6,0,L|261:241,1,50,0|2,0:0|0:0,0:0:0:0:
423,313,30400,5,2,3:2:0:0:
423,313,30800,1,0,0:0:0:0:
363,166,31200,2,0,B|358:192|361:218|369:241,1,75.0000028610231,2|2,0:0|0:0,0:0:0:0:
423,313,32000,5,2,3:2:0:0:
304,330,32845,5,0,0:0:0:0:
201,317,33797,5,2,0:0:0:0:
112,341,34939,5,0,0:0:0:0:
50,141,36431,6,0,L|44:240,1,100,4|4,0:3|0:3,0:0:0:0:
134,347,36853,1,8,0:0:0:0:
288,276,37064,1,0,0:0:0:0:
254,266,37170,1,4,0:3:0:0:
220,256,37276,1,0,0:0:0:0:
44,240,37487,1,4,0:3:0:0:
275,177,37698,2,0,B|328:181|378:168,1,100,8|0,0:0|0:0,0:0:0:0:
491,246,38121,6,0,B|438:242|388:255,1,100,4|4,0:3|0:3,0:0:0:0:
295,355,38543,2,0,B|265:337|231:330|199:333,1,100,8|0,0:0|0:0,0:0:0:0:
152,352,38860,2,0,B|163:317|161:282|149:251,1,100,4|0,0:3|0:0,0:0:0:0:
135,221,39177,1,4,0:3:0:0:
23,305,39388,1,8,0:0:0:0:
65,99,39600,1,0,0:0:0:0:
170,244,39811,6,0,B|204:256|239:253|268:238,1,100,4|4,0:3|0:3,0:0:0:0:
211,110,40233,1,8,0:0:0:0:
363,34,40445,1,0,0:0:0:0:
370,47,40550,1,4,0:3:0:0:
377,60,40656,2,0,B|415:62|455:70|455:70|435:83,1,100,0|4,0:0|0:3,0:0:0:0:
211,110,41078,1,8,0:0:0:0:
383,192,41290,1,0,0:0:0:0:
183,130,41501,6,0,B|146:124|111:128|78:140,1,100,4|4,0:3|0:3,0:0:0:0:
172,245,41923,2,0,B|209:251|244:247|277:235,1,100,8|0,0:0|0:0,0:0:0:0:
308,204,42240,2,0,L|326:332,1,100,4|0,0:2|0:0,0:0:0:0:
345,329,42557,1,4,0:3:0:0:
154,326,42769,5,8,0:3:0:0:
122,312,42874,1,8,0:3:0:0:
99,286,42980,1,8,0:3:0:0:
89,252,43085,1,8,0:3:0:0:
85,218,43191,6,0,L|82:130,1,75.0000028610231,4|2,0:0|0:0,0:0:0:0:
224,161,43614,1,8,0:0:0:0:
189,61,43825,1,2,0:0:0:0:
320,195,44036,2,0,B|327:158|318:121,1,75.0000028610231,2|0,0:0|0:0,0:0:0:0:
415,80,44459,1,8,0:0:0:0:
390,259,44670,1,0,0:0:0:0:
374,280,44776,1,0,0:0:0:0:
357,300,44881,6,0,B|318:313|278:304|249:279,1,112.500004291535,2|2,0:0|0:0,0:0:0:0:
232,261,45304,1,8,0:0:0:0:
184,363,45515,1,2,0:0:0:0:
321,195,45726,1,2,0:0:0:0:
146,282,45938,1,0,0:0:0:0:
184,363,46149,1,8,0:0:0:0:
232,261,46360,1,2,0:3:0:0:
72,326,46571,6,0,B|47:279|76:230|76:230|67:206|73:181,1,150.000005722046,4|8,0:3|0:0,0:0:0:0:
104,81,47205,1,2,0:0:0:0:
218,166,47416,2,0,B|242:180|268:185|293:183,2,75.0000028610231,2|0|8,0:0|0:0|0:0,0:0:0:0:
362,57,48050,1,0,0:0:0:0:
387,61,48156,1,0,0:0:0:0:
412,67,48261,6,0,B|447:82|487:73|487:73|478:112,1,112.500004291535,2|2,0:0|0:0,0:0:0:0:
474,134,48684,2,0,B|465:171|469:208,1,75.0000028610231,8|2,0:0|0:0,0:0:0:0:
498,310,49107,1,2,0:0:0:0:
370,184,49318,1,0,0:0:0:0:
256,269,49529,2,0,L|326:297,1,75.0000028610231,8|2,0:0|0:3,0:0:0:0:
498,310,49952,5,4,0:3:0:0:
474,134,50163,1,2,0:0:0:0:
287,188,50374,2,0,L|282:106,1,75.0000028610231,8|2,0:0|0:0,0:0:0:0:
148,63,50797,2,0,L|153:145,1,75.0000028610231,2|0,0:0|0:0,0:0:0:0:
113,274,51219,1,8,0:0:0:0:
113,274,51431,1,0,0:0:0:0:
195,338,51642,5,2,0:0:0:0:
318,267,51853,1,0,0:0:0:0:
176,123,52064,2,0,B|174:150|181:175|194:196,1,75.0000028610231,8|2,0:0|0:0,0:0:0:0:
318,267,52487,2,0,L|393:259,1,75.0000028610231,2|0,0:0|0:0,0:0:0:0:
329,175,52909,1,8,0:0:0:0:
195,338,53121,1,2,0:3:0:0:
356,340,53332,6,0,L|431:332,1,75.0000028610231,4|2,0:3|0:0,0:0:0:0:
329,175,53754,1,8,0:0:0:0:
195,338,53966,1,2,0:0:0:0:
140,207,54177,2,0,B|101:201|101:201|61:208,1,75.0000028610231,2|0,0:0|0:0,0:0:0:0:
195,338,54600,1,8,0:0:0:0:
329,175,54811,1,0,0:0:0:0:
231,135,55022,6,0,L|157:122,1,75.0000028610231,2|0,0:0|0:0,0:0:0:0:
305,94,55445,1,8,0:0:0:0:
358,255,55656,1,2,0:0:0:0:
360,280,55761,1,0,0:0:0:0:
363,306,55867,2,0,L|453:323,1,75.0000028610231,2|0,0:0|0:0,0:0:0:0:
329,175,56290,1,8,0:3:0:0:
306,188,56395,1,8,0:3:0:0:
289,208,56501,1,8,0:3:0:0:
278,231,56606,1,0,0:0:0:0:
274,257,56712,6,0,B|247:254|221:263|202:279,1,75.0000028610231,4|2,0:0|0:0,0:0:0:0:
82,353,57135,1,8,0:0:0:0:
184,375,57346,1,2,0:0:0:0:
50,253,57557,1,2,0:0:0:0:
184,375,57769,1,0,0:0:0:0:
195,213,57980,2,0,B|202:186|200:159|192:135,1,75.0000028610231,8|0,0:0|0:0,0:0:0:0:
117,66,58402,6,0,B|157:71|194:59|222:36,1,112.500004291535,2|2,0:0|0:0,0:0:0:0:
243,19,58825,1,8,0:0:0:0:
195,213,59036,1,2,0:0:0:0:
356,133,59247,2,0,L|431:127,1,75.0000028610231,2|0,0:0|0:0,0:0:0:0:
330,229,59670,1,8,0:0:0:0:
329,255,59776,1,0,0:0:0:0:
328,281,59881,1,2,0:3:0:0:
327,307,59987,1,0,0:0:0:0:
325,333,60092,6,0,L|396:355,1,75.0000028610231,4|2,0:3|0:0,0:0:0:0:
330,229,60515,1,8,0:0:0:0:
203,356,60726,1,2,0:0:0:0:
307,208,60938,2,0,L|300:133,1,75.0000028610231,2|0,0:0|0:0,0:0:0:0:
186,48,61360,2,0,L|179:122,1,75.0000028610231,8|0,0:0|0:0,0:0:0:0:
192,265,61783,6,0,B|164:237|125:225|89:229,1,112.500004291535,2|2,0:0|0:0,0:0:0:0:
63,234,62205,1,8,0:0:0:0:
203,356,62416,1,2,0:0:0:0:
278,192,62628,2,0,L|281:103,1,75.0000028610231,2|0,0:0|0:0,0:0:0:0:
381,266,63050,1,8,0:0:0:0:
455,192,63261,1,2,0:3:0:0:
353,292,63473,6,0,L|279:298,1,75.0000028610231,4|2,0:3|0:0,0:0:0:0:
155,313,63895,2,0,L|186:245,1,75.0000028610231,8|2,0:0|0:0,0:0:0:0:
235,130,64318,2,0,L|278:192,1,75.0000028610231,2|0,0:0|0:0,0:0:0:0:
353,292,64740,1,8,0:0:0:0:
187,245,64952,1,0,0:0:0:0:
334,117,65163,6,0,L|410:108,1,75.0000028610231,2|0,0:0|0:0,0:0:0:0:
278,192,65585,2,0,L|248:260,1,75.0000028610231,8|2,0:0|0:0,0:0:0:0:
241,106,66008,2,0,L|195:44,1,75.0000028610231,2|0,0:0|0:0,0:0:0:0:
334,117,66431,1,8,0:0:0:0:
248,261,66642,1,2,0:3:0:0:
112,122,66853,6,0,L|26:121,1,75.0000028610231,4|2,0:3|0:0,0:0:0:0:
194,210,67276,2,0,L|119:209,1,75.0000028610231,8|2,0:0|0:0,0:0:0:0:
213,56,67698,2,0,L|287:55,1,75.0000028610231,2|0,0:0|0:0,0:0:0:0:
368,123,68121,1,8,0:0:0:0:
368,123,68332,1,0,0:0:0:0:
194,210,68543,5,4,0:3:0:0:
213,56,68754,1,2,0:0:0:0:
368,123,68966,1,8,0:3:0:0:
507,32,69177,1,0,0:0:0:0:
418,222,69388,6,0,L|402:279,3,50,12|0|0|0,0:0|0:0|0:0|0:0,0:0:0:0:
292,354,70233,5,4,0:0:0:0:
221,232,70445,1,8,0:0:0:0:
186,236,70550,1,0,0:0:0:0:
153,249,70656,1,0,0:0:0:0:
322,254,70867,1,8,0:0:0:0:
355,245,70972,1,0,0:0:0:0:
385,227,71078,5,4,0:3:0:0:
409,201,71183,1,0,0:0:0:0:
424,170,71289,1,8,0:0:0:0:
304,129,71501,2,0,L|276:87,2,50,4|0|8,0:3|0:0|0:0,0:0:0:0:
138,163,71923,6,0,L|149:61,1,100,0|8,0:0|0:0,0:0:0:0:
29,138,72346,1,0,0:0:0:0:
101,291,72557,1,8,0:0:0:0:
132,274,72662,1,0,0:0:0:0:
165,265,72768,5,4,0:3:0:0:
200,262,72873,1,0,0:0:0:0:
235,266,72979,1,0,0:0:0:0:
386,343,73191,2,0,L|440:349,2,50,4|0|8,0:3|0:0|0:0,0:0:0:0:
252,237,73614,6,0,B|235:189|240:138,1,100,0|8,0:0|0:0,0:0:0:0:
330,31,74036,1,0,0:0:0:0:
457,143,74247,2,0,L|470:94,1,50,8|0,0:0|0:0,0:0:0:0:
382,186,74459,6,0,L|417:221,1,50,4|0,0:3|0:0,0:0:0:0:
382,101,74670,1,8,0:0:0:0:
285,240,74881,1,4,0:3:0:0:
286,275,74987,1,0,0:0:0:0:
286,309,75092,1,8,0:0:0:0:
382,186,75304,5,0,0:0:0:0:
182,183,75515,1,8,0:0:0:0:
164,175,75621,1,0,0:0:0:0:
145,168,75726,1,0,0:0:0:0:
279,148,75938,1,8,0:0:0:0:
289,130,76043,1,0,0:0:0:0:
305,110,76149,5,4,0:3:0:0:
328,91,76254,1,4,0:3:0:0:
359,75,76360,1,8,0:0:0:0:
399,71,76466,1,0,0:0:0:0:
436,103,76571,6,0,L|453:163,1,50,4|4,0:3|0:3,0:0:0:0:
368,234,76783,2,0,L|382:186,1,50,8|8,0:0|0:0,0:0:0:0:
438,287,76994,5,4,0:0:0:0:
279,148,77205,1,8,0:0:0:0:
256,316,77416,2,0,B|222:328|187:325|158:311,1,100,0|8,0:0|0:0,0:0:0:0:
139,317,77733,1,0,0:0:0:0:
119,322,77839,5,4,0:3:0:0:
16,226,78050,2,0,L|80:221,1,50,8|0,0:0|0:0,0:0:0:0:
167,167,78261,2,0,L|117:163,1,50,4|0,0:3|0:0,0:0:0:0:
42,120,78473,1,8,0:0:0:0:
260,219,78684,6,0,B|278:188|278:152|264:122,1,100,0|8,0:0|0:0,0:0:0:0:
31,184,79107,2,0,L|134:170,1,100,0|8,0:0|0:0,0:0:0:0:
145,182,79423,1,0,0:0:0:0:
160,194,79529,5,4,0:3:0:0:
120,328,79740,1,8,0:0:0:0:
154,321,79845,1,0,0:0:0:0:
189,321,79951,1,4,0:3:0:0:
224,325,80056,1,0,0:0:0:0:
257,336,80162,1,0,0:0:0:0:
413,267,80374,6,0,B|378:274|344:269|314:257,1,100,0|8,0:0|0:0,0:0:0:0:
256,97,80797,1,0,0:0:0:0:
117,83,81008,1,8,0:0:0:0:
99,113,81114,1,0,0:0:0:0:
79,142,81219,6,0,L|69:208,1,50,4|0,0:3|0:0,0:0:0:0:
118,309,81431,2,0,L|128:243,1,50,8|0,0:0|0:0,0:0:0:0:
209,153,81642,6,0,L|217:203,1,50,4|4,0:3|0:3,0:0:0:0:
308,316,81853,2,0,L|316:266,1,50,8|8,0:0|0:0,0:0:0:0:
444,170,82064,6,0,L|427:289,1,100,4|4,0:0|0:3,0:0:0:0:
342,160,82487,2,0,B|347:124|368:95|397:78,1,100,8|0,0:0|0:0,0:0:0:0:
396,59,82804,1,4,0:3:0:0:
395,39,82909,1,0,0:0:0:0:
256,139,83121,1,4,0:3:0:0:
55,34,83332,2,0,L|155:41,1,100,8|0,0:0|0:0,0:0:0:0:
274,161,83754,6,0,L|174:154,1,100,4|4,0:3|0:3,0:0:0:0:
318,244,84177,2,0,B|365:219|381:161|356:116,1,150,8|4,0:0|0:3,0:0:0:0:
192,69,84705,1,0,0:0:0:0:
207,37,84811,1,4,0:3:0:0:
357,116,85022,1,8,0:0:0:0:
256,300,85233,1,0,0:0:0:0:
122,195,85445,5,4,0:3:0:0:
357,116,85656,1,4,0:3:0:0:
256,300,85867,1,8,0:0:0:0:
375,226,86078,1,0,0:0:0:0:
409,217,86184,1,4,0:3:0:0:
442,206,86290,1,0,0:0:0:0:
313,95,86501,1,4,0:3:0:0:
122,195,86712,1,8,0:0:0:0:
375,226,86923,1,0,0:0:0:0:
256,300,87135,6,0,B|235:301|220:292|220:292|202:297|202:297|184:289|184:289|164:299|138:294,1,119.999996337891,4|4,0:3|0:3,0:0:0:0:
13,185,87557,2,0,B|33:172|47:152|47:152|66:146|84:154|84:154|117:114|178:124,1,179.999994506836,8|4,0:0|0:3,0:0:0:0:
322,192,88085,1,0,0:0:0:0:
322,192,88191,1,4,0:3:0:0:
256,37,88402,1,8,0:0:0:0:
253,79,88508,1,8,0:0:0:0:
250,121,88614,1,4,0:3:0:0:
247,162,88719,1,4,0:3:0:0:
244,203,88825,6,0,B|206:259|209:357|247:368|320:369|360:270|298:244|264:290,1,300.000011444092,4|0,0:0|0:0,0:0:0:0:
